thegourmetpupcakery.com



Main / Productivity / Zjmedia mpeg-4 encoder

Zjmedia mpeg-4 encoder

Zjmedia mpeg-4 encoder

Name: Zjmedia mpeg-4 encoder

File size: 793mb

Language: English

Rating: 7/10

Download

 

23 Oct Overview of MPEG-4 encoding format: Also known as MPEG-4 Part 10 or AVC (for Advanced Video Coding). The intention behind H/AVC project was to provide good video quality at substantially lower bit rates than previous standards. Selection of software according to "Zjmedia mpeg4 encoder vs mpeg4" topic. Selection of software according to "Zjmedia mpeg-4 encoder versus h" topic.

Zjmedia Mpeg 4 Encode Shareware and Freeware Programs - MPEG-4 Player with SMR Decoder (DSI-DISIT), iCoolsoft MPEG-4 Video Converter. Zjmedia Mpeg4 Encoder (or "free Zjmedia Mpeg4 Encoder downloads") is a collection of products of 81 downloads, that can be described as: Zjmedia Mpeg4 . Empisal sewing machine empisal celebrity thre the machine out – kept the manual – if anyone needs it empisal. Singer hd heavy duty overlocker enter your .

29 Mar Writing application: ZJMEDIA MP4/3GP/MOV Encoder v Comment: QuickTime or greater. Video ID: 1. Format: MPEG-4 Visual. 30 Oct 〆nc: ZJMEDIA MP4/3GP/MOV Encoder v Video #0. Codec: MPEG-4 Visual Codec settings/BVOP: No Codec settings/QPel: No Codec. 15 Oct Trying to re-encode all my clips in DXV for Resolume 4 and I've installed I have 4 options ZJMedia MPEG-4 Encoder, MPEG-4 Video, Motion. 15 Oct It can support almost all formats of video including AVI, MPEG1/2/4, Convert all video formats to DVD,SVCD,VCD, MPEG formats as output 4X Speed with ZJMedia's AV compress engine - Own Independent Encoders. 17 Sep yea but i already paid for WinAVI, and i can export it to avi, the problem is, i'm using Zjmedia Mpeg-4 encoder so the final avi product is not.

24 Jun Colorimetry: Scan type: Progressive Bits/(Pixel*Frame): Stream size: MiB. Writing library: ZJMedia MPEG Encoder. Audio. MSScreen 9 Encoder DMO WMVideo 8 encoder DMO WMVideo9 Encoder DMO ZJMedia MPEG-4 Encoder ZJMedia Uncompress RGB 4. Insert Settings. Codec. Video: ZjMedia Mpeg-4 Encoder. Audio: ZJMedia Mp3 Encoder. Video Formate. Video Framerate: Picture size. 4 Oct K-lite codec pack v full. VLC media player v I also have Win through Win Avi with the following setting: ZJmedia MPEG4 encoder.

The choices winavi gives us is auto, 4 3 and 16 9. auto is going to select the closest aspect to . zjmedia mpeg 4 encoder es el propio del winavi y xvid encoder. Best of zjmedia mpeg4 encoder for at KeyOptimize(Out of Thousand in result | Last check 24 November ). Format: MPEG-4 Visual Writing library: ZJMedia MPEG Encoder Audio Stream # Video: mpeg4 (Simple Profile) (XVID / 0x). Colorimetry: Scan type: Progressive Bits/(Pixel*Frame): Stream size: MiB (95%) Writing library: ZJMedia MPEG Encoder.

More:


В© 2018 thegourmetpupcakery.com - all rights reserved!